Jump to content

nnovcrazy

Members
  • Content Count

    3
  • Joined

  • Last visited

    Never

About nnovcrazy

  • Rank
    Newbie

Contact Methods

  • ICQ
    387197100

Profile Information

  • Location
    Нижний Новгород
  1. но это же извращенство какое-то... у меня ощущение, что там просто не знают, как убрать это ограничение, т. к. письма приходят от девушек, и просят меня скинуть им инструкции, как убрать.... нельзя ли запустить приложение, просто запретив киллу дотрагиваться до него?
  2. Собственно проблема, не могу сконвертировать видео с помощью ffmpeg, в техподдержке хостинга peterhost сказали, что у них стоит ограничение на выполнение приложение - 30 секунд, и его не возможно убрать, посоветовали разбить кодирование на несколько шагов... собственно вывод самого приложения: $ ffmpeg -i vidgsER3V.avi newvideo.flv> >> FFmpeg version 0.5, Copyright © 2000-2009 Fabrice Bellard, et al.> >> configuration: --prefix=/usr/local --mandir=/usr/local/man> >> --enable-shared --e> >> nable-gpl --enable-swscale --enable-postproc --enable-avfilter> >> --enable-avfilter> >> -lavf --enable-memalign-hack --cc=cc --extra-cflags=> >> -I/usr/local/include --extr> >> a-ldflags=-L/usr/local/lib --extra-libs=-pthread --disable-debug> >> --disable-mmx> >> --enable-libamr-nb --enable-nonfree --disable-libamr-wb> >> --disable-libdirac --dis> >> able-libfaac --disable-libfaad --disable-ffserver --disable-libgsm> >> --disable-vho> >> ok --disable-ipv6 --enable-libmp3lame --disable-libopenjpeg> >> --disable-libschroed> >> inger --disable-ffplay --disable-libspeex --disable-libtheora> >> --disable-libvorbi> >> s --disable-x11grab --disable-libx264 --disable-libxvid> >> libavutil 49.15. 0 / 49.15. 0> >> libavcodec 52.20. 0 / 52.20. 0> >> libavformat 52.31. 0 / 52.31. 0> >> libavdevice 52. 1. 0 / 52. 1. 0> >> libavfilter 0. 4. 0 / 0. 4. 0> >> libswscale 0. 7. 1 / 0. 7. 1> >> libpostproc 51. 2. 0 / 51. 2. 0> >> built on Jun 3 2010 10:44:17, gcc: 3.4.6 [FreeBSD] 20060305> >>> >> Seems stream 0 codec frame rate differs from container frame rate: 60.00> >> (60/1)> >> -> 29.97 (30000/1001)> >> Input #0, flv, from 'vidgsER3V.avi':> >> Duration: *00:02:45.50*, start: 0.000000, bitrate: N/A> >> Stream #0.0: Video: h264, yuv420p, 1280x720 [PAR 1:1 DAR 16:9],> >> 29.97 tbr, 1> >> k tbn, 60 tbc> >> Stream #0.1: Audio: aac, 44100 Hz, stereo, s16> >> Output #0, flv, to 'newvideo.flv':> >> Stream #0.0: Video: flv, yuv420p, 1280x720 [PAR 1:1 DAR 16:9],> >> q=2-31, 200 k> >> b/s, 90k tbn, 29.97 tbc> >> Stream #0.1: Audio: libmp3lame, 44100 Hz, stereo, s16, 64 kb/s> >> Stream mapping:> >> Stream #0.0 -> #0.0> >> Stream #0.1 -> #0.1> >> Press [q] to stop encoding> >> Killed: 958 fps= 20 q=31.0 size= 6146kB *time=21.79*> >> bitrate=2311.1kbits/s Видно, что видео длится 02:45.50, а конвертируемое получается 21.79
×
×
  • Create New...